Filecrypt zeigt vereinzelt Files als "n/a". Die Downloads sind trotzdem komplett.

DNS SERVER AENDERNum der staatlichen Zensur zu umgehen. Sollten wir von eurem Provider geseprrt werden, nutzt den TOR BROWSER oder ändert euren DNS SERVER.

Filmwünsche können bei uns im Forum abgegeben werden

Wir Speichern Nicht




 
 
 
Top Releases
Jurassic.World.2015.German.A...
Transit.2018.German.AC3.1080...
Hereditary.Das.Vermaechtnis....
Batman.The.Killing.Joke.2016...
Moonlight.2016.German.DL.DTS...
Love.Simon.2018.German.DTS.D...
Love.Simon.2018.German.DTS.D...
The.Night.Comes.for.Us.2018....
Cartel.Land.2015.German.DTSH...
Assassination.2015.German.DT...

Cinedubs
Bad.Spies.2018.German.AC3MD....
Bad.Spies.2018.German.AC3MD....
MEG.Biss.bald.2018.German.AC...
Slender.Man.2018.GERMAN.DL.A...
Slender.Man.2018.GERMAN.DL.A...
MEG.Biss.bald.2018.German.AC...
MEG.Biss.bald.2018.German.AC...
Searching.2018.German.AC3MD....
Searching.2018.German.AC3MD....
211.Cops.Under.Fire.2018.Ger...

Neuerscheinungen 2017-18
Illang.The.Wolf.Brigade.2018...
Illang.The.Wolf.Brigade.2018...
Tales.from.the.Hood.2.2018.G...
Tales.from.the.Hood.2.2018.M...
Abschussfahrt.2015.German.AC...
Point.Break.2015.German.DL.D...
Der.Himmel.ueber.Berlin.1987...
Tales.from.the.Hood.2.2018.G...
Tales.from.the.Hood.2.2018.G...
Tau.2018.German.AC3.DL.1080p...

XXX
ImmoralLive.18.10.02.Nikki.F...
SweetheartVideo.Talk.Derby.T...
DPFanatics.18.10.05.Ginebra....
DevilsFilm.18.10.04.Victoria...
BrothaLovers.18.09.30.Kate.E...
FTVGirls.18.10.04.Vanna.And....
EvilAngel.Anal.Slut.Diaries....
MistressT.18.04.08.Atone.For...
Nubiles.18.10.03.Jynx.Correr...
SexAndSubmission.18.10.05.Lo...
X-Art.18.09.28.Izzy.Hot.Russ...
CumPerfection.18.10.04.Sapph...
TeenFidelity.E338.Eden.Sin.M...
MistressT.17.09.08.Gloved.Cr...
MistressT.18.03.08.Kinky.Cuc...
MistressT.18.05.03.Vampire.S...
LadyVoyeurs.18.10.03.Saskia....
BangBus.18.10.03.Angelica.Cr...
Bang.ScrewTheCops.18.10.03.N...
BrattySis.18.10.05.Kiara.Col...

3D
Detective.Dee.und.die.Legend...
Detective.Dee.und.die.Legend...
Skyscraper.3D.German.DL.AC3....
Ant-Man.and.the.Wasp.2018.3D...
Jurassic.World.Das.gefallene...
Jurassic.World.Das.gefallene...
Best.of.3D.vol.10.-.12.GERMA...
Die.Biene.Maja.2.Die.Honigsp...
Sharknado.6.The.Last.One.3D....
Solo.A.Star.Wars.Story.3D.20...
Solo.A.Star.Wars.Story.3D.20...
Die.Biene.Maja.2.Die.Honigsp...
Avengers.Infinity.War.3D.201...
Avengers.Infinity.War.3D.201...
Rampage.Big.Meets.Bigger.3D....

Old_Stuff
Species.IV.Das.Erwachen.2007...
Species.IV.Das.Erwachen.2007...
Hotel.Transsilvanien.2012.Ge...
The.Dead.2010.German.DL.1080...
The.Dead.2.India.2013.German...
Britney.Spears.Live.The.Femm...
Buffy.The.Vampire.Slayer.199...
IMAX.Ride.Around.The.World.2...
Schimanski.-.Duisburg.Ruhror...
Akte.X.S02.German.DTS.DL.108...
How.I.Met.Your.Mother.S02.Ge...
Akte.X.S01.German.DTS.DL.108...
Den.Himmel.gibts.echt.DL.108...
Vikings.S02.German.DL.1080p....
Be.Kind.Rewind.Abgedreht.200...

Filme
Halloween.Resurrection.Delux...
Die.Kraniche.ziehen.1957.Ger...
The.Frighteners.1996.German....
8.Blickwinkel.2008.German.AC...
Gangster.No1.2000.German.DD5...
Barbaras.Baby.Omen.III.The.F...
Die.Legende.von.den.acht.Sam...
7.Tage.in.Entebbe.2018.Germa...
MotoGP.Moto2.Moto3.Saison.20...
Sieben.Leben.2008.German.AC3...
MotoGP.Moto2.Moto3.Saison.20...
Formel.1.Saison.2018.GERMAN....
Weissensee.S04.COMPLETE.Germ...
Weissensee.S04.COMPLETE.Germ...
Beastly.Schau.in.sein.wahres...
Weissensee.S01-S03.COMPLETE....
Weissensee.S01-S03.COMPLETE....
Wolfsnaechte.2018.German.DL....
Der.Himmel.ueber.Berlin.1987...
The.Purge.S01.German.DD+51.D...
The.Purge.S01.German.DD+51.D...
Snowfall.S02.COMPLETE.GERMAN...
Marvels.Daredevil.S03.COMPLE...
Marvels.Daredevil.S03.COMPLE...

 
 
Riverdale.US.S03.GERMAN.DL.1080p.WEB.x264-EiSBOCK

Jahr: 2018
Genre: Krimi | Drama | Mystery
Sprache: Deutsch AC3 | Englisch AC3
Laufzeit: 42min je Folge
Bitrate: 4600 Kbps
Format: MKV
Größe: 1,8 GB je Folge
Release:

Beschreibung:

 

In der Gegenwart angesiedelte Neuauflage der Geschichten rund um die ewige Dreiecks-Beziehung zwischen dem Teenager Archie Andrews (KJ Apa), dem brünetten „girl next door“ Betty Cooper (Lili Reinhart) und der reichen, geselligen und blonden Veronica Lodge (Camila Mendes), alle bekannt aus den in den USA sehr populären „Archie“-Comics.

 

enthaltene Folgen:

Riverdale.US.S03E01.GERMAN.DL.1080p.WEB.x264-EiSBOCK

Riverdale.US.S03E02.GERMAN.DL.1080p.WEB.x264-EiSBOCK NEU



General
Complete name                            : Riverdale.US.S03E01.GERMAN.DL.1080p.WEB.x264-EiSBOCK\riverdale.us.s03e01.german.dl.1080p.web.x264-eisbock.mkv
Format                                   : Matroska
Format version                           : Version 4 / Version 2
File size                                : 1.76 GiB
Duration                                 : 42mn 48s
Overall bit rate mode                    : Variable
Overall bit rate                         : 5 881 Kbps
Encoded date                             : UTC 2018-10-11 17:38:48
Writing application                      : mkvmerge v26.0.0 ('In The Game') 64-bit
Writing library                          : libebml v1.3.6 + libmatroska v1.4.9

Video
ID                                       : 1
Format                                   : AVC
Format/Info                              : Advanced Video Codec
Format profile                           : [email protected]
Format settings, CABAC                   : Yes
Format settings, ReFrames                : 3 frames
Codec ID                                 : V_MPEG4/ISO/AVC
Duration                                 : 42mn 48s
Bit rate mode                            : Variable
Bit rate                                 : 4 640 Kbps
Maximum bit rate                         : 6 960 Kbps
Width                                    : 1 920 pixels
Height                                   : 1 080 pixels
Display aspect ratio                     : 16:9
Frame rate mode                          : Constant
Frame rate                               : 23.976 fps
Color space                              : YUV
Chroma subsampling                       : 4:2:0
Bit depth                                : 8 bits
Scan type                                : Progressive
Bits/(Pixel*Frame)                       : 0.093
Stream size                              : 1.34 GiB (76%)
Writing library                          : x264 core 148 r2715 7e75228
Encoding settings                        : cabac=1 / ref=3 / deblock=1:0:0 / analyse=0x1:0x111 / me=umh / subme=10 / psy=1 / psy_rd=1.00:0.00 / mixed_ref=1 / me_range=24 / chroma_me=1 / trellis=2 / 8x8dct=0 / cqm=0 / deadzone=21,11 / fast_pskip=1 / chroma_qp_offset=-2 / threads=6 / lookahead_threads=1 / sliced_threads=0 / nr=0 / decimate=1 / interlaced=0 / bluray_compat=0 / stitchable=1 / constrained_intra=0 / bframes=2 / b_pyramid=0 / b_adapt=2 / b_bias=0 / direct=3 / weightb=1 / open_gop=0 / weightp=2 / keyint=48 / keyint_min=25 / scenecut=0 / intra_refresh=0 / rc_lookahead=48 / rc=2pass / mbtree=1 / bitrate=4640 / ratetol=1.0 / qcomp=0.50 / qpmin=6 / qpmax=51 / qpstep=4 / cplxblur=20.0 / qblur=0.5 / vbv_maxrate=6960 / vbv_bufsize=9280 / nal_hrd=vbr / filler=0 / ip_ratio=1.40 / aq=1:1.00
Default                                  : Yes
Forced                                   : No

Audio #1
ID                                       : 2
Format                                   : E-AC-3
Format/Info                              : Audio Coding 3
Format settings, Endianness              : Big
Codec ID                                 : A_EAC3
Duration                                 : 42mn 48s
Bit rate mode                            : Constant
Bit rate                                 : 640 Kbps
Channel(s)                               : 6 channels
Channel positions                        : Front: L C R, Side: L R, LFE
Sampling rate                            : 48.0 KHz
Compression mode                         : Lossy
Stream size                              : 196 MiB (11%)
Language                                 : German
Default                                  : Yes
Forced                                   : No

Audio #2
ID                                       : 3
Format                                   : E-AC-3
Format/Info                              : Audio Coding 3
Format settings, Endianness              : Big
Codec ID                                 : A_EAC3
Duration                                 : 42mn 48s
Bit rate mode                            : Constant
Bit rate                                 : 640 Kbps
Channel(s)                               : 6 channels
Channel positions                        : Front: L C R, Side: L R, LFE
Sampling rate                            : 48.0 KHz
Compression mode                         : Lossy
Stream size                              : 196 MiB (11%)
Language                                 : English
Default                                  : No
Forced                                   : No

Text #1
ID                                       : 4
Format                                   : UTF-8
Codec ID                                 : S_TEXT/UTF8
Codec ID/Info                            : UTF-8 Plain Text
Title                                    : German Forced
Language                                 : German
Default                                  : Yes
Forced                                   : Yes

Text #2
ID                                       : 5
Format                                   : UTF-8
Codec ID                                 : S_TEXT/UTF8
Codec ID/Info                            : UTF-8 Plain Text
Title                                    : German
Language                                 : German
Default                                  : No
Forced                                   : No

Text #3
ID                                       : 6
Format                                   : UTF-8
Codec ID                                 : S_TEXT/UTF8
Codec ID/Info                            : UTF-8 Plain Text
Title                                    : English (CC)
Language                                 : English
Default                                  : No
Forced                                   : No



Download:
Share-Online.biz Share-Online.bizShare-Online.bizShare-Online.biz | Rapidgator.net Rapidgator.netRapidgator.netRapidgator.net
 

Kommentare